実際どう変わる?Amatsukazeでx265 ver2.9+15 と ver3.0+1を比較してみる。気楽に変えるとファイルサイズも8%くらい変わっちゃいますね^^;

メジャーバージョンが上がってもうすぐ一か月、rigaya氏にお世話になりながらいろいろテストした“φ(・_.) メモッ!を今更上げてみる。

次世代ビデオコーデック総合スレPart2 【HEVC/VP9/AV1/VVC等】
https://mevius.5ch.net/test/read.cgi/avi/1532001049/956-n
—-
x265 3.0 がリリースされ、それに対応した x265guiEx 3.92 もリリースされた。

x265のリリースノートは現時点ではまだ2.9のままなので、3.0の内容については当面は2つ目のリンクから。
 https://x265.readthedocs.io/en/default/releasenotes.html
 https://bitbucket.org/multicoreware/x265/src/a6a12bc3ccf4b3138f1d62b2a81c9c40c3c88d62/doc/reST/releasenotes.rst

詳細は直接見てもらうとして、意識しとくべきなのは以下の3つあたりかな?

 ・–preset slowerのパラメータ変更があり、従来のveryslowと同じになった。
  その上でveryslowにいくつかパラメータ変更が入った。

 ・–aq-modeのデフォルト値変更。 「1 : uniform AQ」 → 「2 : auto variance」

 ・–tune animationの追加

あとはDolbyVision対応とか、–hevc-aq (これが以前話に出てた新しいAQ?)の試験実装とかかな。
リリースノートに書かれてない新オプションとして、–[no-]-hrd-concat というのもある。
—-

■ Amatsukazeでオプション「-P main10 –crf 18 –preset veryfast –rd 3」で、エンコードして比較。

Writing library : x265 2.9+15-81373aab81df:[Windows][GCC 8.2.1][64 bit] 10bit
Format profile : Main 10@L4@Main
Duration : 23 min 34 s
Width : 1 920 pixels
Height : 1 080 pixels
Bits/(Pixel*Frame) : 0.079
Stream size : 660 MiB (95%)
Encoding settings : cpuid=1111039 / frame-threads=3 / numa-pools=8 / wpp / no-pmode / no-pme / no-psnr / no-ssim / log-level=2 / input-csp=1 / input-res=1920×1080 / interlace=0 / total-frames=33926 / level-idc=0 / high-tier=1 / uhd-bd=0 / ref=2 / no-allow-non-conformance / no-repeat-headers / annexb / no-aud / no-hrd / info / hash=0 / no-temporal-layers / open-gop / min-keyint=23 / keyint=250 / gop-lookahead=0 / bframes=4 / b-adapt=0 / b-pyramid / bframe-bias=0 / rc-lookahead=15 / lookahead-slices=6 / scenecut=40 / radl=0 / no-splice / no-intra-refresh / ctu=64 / min-cu-size=8 / no-rect / no-amp / max-tu-size=32 / tu-inter-depth=1 / tu-intra-depth=1 / limit-tu=0 / rdoq-level=0 / dynamic-rd=0.00 / no-ssim-rd / signhide / no-tskip / nr-intra=0 / nr-inter=0 / no-constrained-intra / strong-intra-smoothing / max-merge=2 / limit-refs=3 / no-limit-modes / me=1 / subme=1 / merange=57 / temporal-mvp / weightp / no-weightb / no-analyze-src-pics / deblock=0:0 / sao / no-sao-non-deblock / rd=3 / early-skip / rskip / fast-intra / no-tskip-fast / no-cu-lossless / no-b-intra / no-splitrd-skip / rdpenalty=0 / psy-rd=2.00 / psy-rdoq=0.00 / no-rd-refine / no-lossless / cbqpoffs=0 / crqpoffs=0 / rc=crf / crf=18.0 / qcomp=0.60 / qpstep=4 / stats-write=0 / stats-read=0 / ipratio=1.40 / pbratio=1.30 / aq-mode=1 / aq-strength=1.00 / cutree / zone-count=0 / no-strict-cbr / qg-size=32 / no-rc-grain / qpmax=69 / qpmin=0 / no-const-vbv / sar=1 / overscan=0 / videoformat=5 / range=0 / colorprim=1 / transfer=1 / colormatrix=1 / chromaloc=0 / display-window=0 / max-cll=0,0 / min-luma=0 / max-luma=1023 / log2-max-poc-lsb=8 / vui-timing-info / vui-hrd-info / slices=1 / no-opt-qp-pps / no-opt-ref-list-length-pps / no-multi-pass-opt-rps / scenecut-bias=0.05 / no-opt-cu-delta-qp / no-aq-motion / no-hdr / no-hdr-opt / no-dhdr10-opt / no-idr-recovery-sei / analysis-reuse-level=5 / scale-factor=0 / refine-intra=0 / refine-inter=0 / refine-mv=0 / no-limit-sao / ctu-info=0 / no-lowpass-dct / refine-mv-type=0 / copy-pic=1 / max-ausize-factor=1.0 / no-dynamic-refine / no-single-sei

Writing library : x265 3.0+1-ed72af837053:[Windows][GCC 8.2.1][64 bit] 10bit
Format profile : Main 10@L4@Main
Duration : 23 min 34 s
Width : 1 920 pixels
Height : 1 080 pixels
Bits/(Pixel*Frame) : 0.086
Stream size : 717 MiB (96%)
Encoding settings : cpuid=1111039 / frame-threads=3 / numa-pools=8 / wpp / no-pmode / no-pme / no-psnr / no-ssim / log-level=2 / input-csp=1 / input-res=1920×1080 / interlace=0 / total-frames=33926 / level-idc=0 / high-tier=1 / uhd-bd=0 / ref=2 / no-allow-non-conformance / no-repeat-headers / annexb / no-aud / no-hrd / info / hash=0 / no-temporal-layers / open-gop / min-keyint=23 / keyint=250 / gop-lookahead=0 / bframes=4 / b-adapt=0 / b-pyramid / bframe-bias=0 / rc-lookahead=15 / lookahead-slices=6 / scenecut=40 / radl=0 / no-splice / no-intra-refresh / ctu=64 / min-cu-size=8 / no-rect / no-amp / max-tu-size=32 / tu-inter-depth=1 / tu-intra-depth=1 / limit-tu=0 / rdoq-level=0 / dynamic-rd=0.00 / no-ssim-rd / signhide / no-tskip / nr-intra=0 / nr-inter=0 / no-constrained-intra / strong-intra-smoothing / max-merge=2 / limit-refs=3 / no-limit-modes / me=1 / subme=1 / merange=57 / temporal-mvp / weightp / no-weightb / no-analyze-src-pics / deblock=0:0 / sao / no-sao-non-deblock / rd=3 / early-skip / rskip / fast-intra / no-tskip-fast / no-cu-lossless / no-b-intra / no-splitrd-skip / rdpenalty=0 / psy-rd=2.00 / psy-rdoq=0.00 / no-rd-refine / no-lossless / cbqpoffs=0 / crqpoffs=0 / rc=crf / crf=18.0 / qcomp=0.60 / qpstep=4 / stats-write=0 / stats-read=0 / ipratio=1.40 / pbratio=1.30 / aq-mode=2 / aq-strength=1.00 / cutree / zone-count=0 / no-strict-cbr / qg-size=32 / no-rc-grain / qpmax=69 / qpmin=0 / no-const-vbv / sar=1 / overscan=0 / videoformat=5 / range=0 / colorprim=1 / transfer=1 / colormatrix=1 / chromaloc=0 / display-window=0 / max-cll=0,0 / min-luma=0 / max-luma=1023 / log2-max-poc-lsb=8 / vui-timing-info / vui-hrd-info / slices=1 / no-opt-qp-pps / no-opt-ref-list-length-pps / no-multi-pass-opt-rps / scenecut-bias=0.05 / no-opt-cu-delta-qp / no-aq-motion / no-hdr / no-hdr-opt / no-dhdr10-opt / no-idr-recovery-sei / analysis-reuse-level=5 / scale-factor=0 / refine-intra=0 / refine-inter=0 / refine-mv=0 / refine-ctu-distortion=0 / no-limit-sao / ctu-info=0 / no-lowpass-dct / refine-analysis-type=0 / copy-pic=1 / max-ausize-factor=1.0 / no-dynamic-refine / no-single-sei / no-hevc-aq / qp-adaptation-range=1.00

太字に変えたくらいじゃわからないっすねw
色も変えておこう。

まぁにわかエンコの私には出来上がった動画を静止画で比べても差がわかりません。どこを比較すればいいのやら(^◇^;
他のプリセットや、設定なら差が出るのかもしれませんが…
って、ことはビットレート低くても問題ないということですよね!元に戻そう。

オプション「-P main10 –crf 18 –rd 3 –aq-mode=1 –preset veryfast」と変更して「aq-mode=1」に。
エンコしてみる。ファイルサイズは元に戻ったのでとりあえず何か気が付いたらこの辺りに立ち戻るということで。

プリセットのslow系使う人は今までと設定が変わるので、個別指定するか確認したほうがいいですね。
「–tune animation」つかってエンコする前にお眠の時間です。

HDRの準備とかテストとか飛び交っているので…夢のまた夢の未来の話だぬん。
この辺でまた。

タイトルとURLをコピーしました